[Login] or [Signup]
Login
Username:
Password:
[Signup]
[Recover Account]


Poll


You must be logged in to view polls



Torrent Details For " Dashing Jigarwala 3 (2019 - Velipadinte Pusthakam South Hindi Dubbed) - 2CD - DTHRip[x264 - A..."

Dashing Jigarwala 3 (2019 - Velipadinte Pusthakam South Hindi Dubbed) - 2CD - DTHRip[x264 - A...

Download this torrent | Magnet Download
Health:
Seeds: 19
Leechers: 3
Completed: 163 
Last Checked: 14-02-2019 11:34:17
External Torrent
Update Stats
Download Magnet


Poster


iMDB
Title: Velipadinte Pusthakam
Year: 2017
Runtime: 157 minutes
Votes: 1173
Rating: 5.0/10
Director: Lal Jose
Writing By: Benny P. Nayarambalam,
Produced By: Antony Perumbavoor,
Music: Shaan Rahman
Cast:
Mohanlal as Prof. Fr. Michael Idikkula
Anoop Menon as Bullet Viswan
Arun Kurian as Sameer
Sarath Kumar as Franklin
Reshma Rajan as Mary
Chemban Vinod Jose as Kakka Rameshan
Salim Kumar as Prof. Premraj Damodaran
Shivaji Guruvayoor as Fr. George Kattuparamban
Priyanka Nair as Jayanthi
Vijay Babu as Himself - Film Producer


Watch-Free-HD     Download

Details
Name: Dashing Jigarwala 3 (2019 - Velipadinte Pusthakam South Hindi Dubbed) - 2CD - DTHRip[x264 - A...
Description:
         Dashing Jigarwala 3 (2019 - Velipadinte Pusthakam South
Hindi Dubbed) - 2CD - DTHRip[x264 - AC3(5.1Ch)]  
 






General
Format                                   : Matroska
Format version                           : Version 4
File size                                : 1.40 GiB
Duration                                 : 2 h 30 min

Video
ID                                       : 1
Format                                   : AVC
Format/Info                              : Advanced Video Codec
Format profile                           : [email protected]
Format settings                          : CABAC / 4 Ref Frames
Format settings, CABAC                   : Yes
Format settings, RefFrames               : 4 frames
Codec ID                                 : V_MPEG4/ISO/AVC
Duration                                 : 2 h 30 min
Bit rate                                 : 1 139 kb/s
Width                                    : 720 pixels
Height                                   : 304 pixels
Display aspect ratio                     : 2.35:1
Frame rate mode                          : Constant
Frame rate                               : 25.000 FPS
Color space                              : YUV
Chroma subsampling                       : 4:2:0
Bit depth                                : 8 bits
Scan type                                : Progressive
Bits/(Pixel*Frame)                       : 0.208
Stream size                              : 1.20 GiB (85%)

Audio
ID                                       : 2
Format                                   : AC-3
Format/Info                              : Audio Coding 3
Commercial name                          : Dolby Digital
Codec ID                                 : A_AC3
Duration                                 : 2 h 30 min
Bit rate mode                            : Constant
Bit rate                                 : 192 kb/s
Channel(s)                               : 6 channels
Channel layout                           : L R C LFE Ls Rs
Sampling rate                            : 48.0 kHz
Stream size                              : 207 MiB (14%)
Language                                 : Hindi


  Thumbnail    




Category:Movies > South Dub
Lang:Hindi
Total Size:1.40 GB
Info Hash:a5c33bf721522ae0c03ee82ba24c6f6a31f9e130
Added By:CyberTron
Date Added:12-02-2019 11:05:24
Views:403
Hits:14

Download Torrent

Ratings:Not Yet Rated (Log in to rate it)

  


Tracker:
udp://tracker.trackerfix.com:80/announce


File List: 


Comments

No comments still posted

Powered by 10 Hamsters v2-svn -|- Page Generated In 1.037052 secs.
-|- RSS FEED
Theme By: Nikkbu