[Login] or [Signup]
Login
Username:
Password:
[Signup]
[Recover Account]


Poll


You must be logged in to view polls



Torrent Details For "18+.The.Unicorn.2019.HDRip.XviD.AC3.LLG"

18+.The.Unicorn.2019.HDRip.XviD.AC3.LLG

Download this torrent | Magnet Download
Health:
Seeds: 0
Leechers: 0
Completed:
Last Checked: 11-02-2019 12:48:04
External Torrent
Update Stats
Download Magnet


Poster
No poster


iMDB
Title: The Unicorn
Year: 2018
Runtime: 88 minutes
Votes: 111
Rating: 6.1/10
Language: English
Director: Robert Schwartzman
Writing By: Will Elliott,Kirk C. Johnson,Nicholas Rutherford,Robert Schwartzman,
Produced By: Bo An,Geeta Bajaj,Al Di,Bret Disend,Viola Du,Nick Gross,Russell Wayne Groves,Jessica James,Robert Schwartzman,Mark Weiss,
Cast:
Lauren Lapkus as Malory
Nicholas Rutherford as Caleb
Lucy Hale as Jesse
Beck Bennett as Tyson
Dree Hemingway as April
Beverly D'Angelo as Edie
John Kapelos as Louis
Maya Kazan as Katie
Darrell Britt-Gibson as Charlie
Kyle Mooney as Gabe
Trailers:
Trailer


Watch-Free-HD     Download

Details
Name:18+.The.Unicorn.2019.HDRip.XviD.AC3.LLG
Description:

Quote:



******************************Thumbnail:**********************

 

******************************Screenshots:********************

 Screenshot 1

 Screenshot 2

 Screenshot 3

 Screenshot 4

 Screenshot 5

 Screenshot 6

 Screenshot 7

 Screenshot 8

 Screenshot 9

 Screenshot 0


******************************************************

18+.The.Unicorn.2019.HDRip.XviD.AC3.LLG.mp4
Format                                   : MPEG-4
Format profile                           : Base Media
Codec ID                                 : isom (isom/iso2/avc1/mp41)
File size                                : 995 MiB
Duration                                 : 1 h 29 min
Overall bit rate mode                    : Variable
Overall bit rate                         : 1 553 kb/s


Video
ID                                       : 1
Format                                   : AVC
Format/Info                              : Advanced Video Codec
Format profile                           : [email protected]
Format settings                          : CABAC / 1 Ref Frames
Format settings, CABAC                   : Yes
Format settings, RefFrames               : 1 frame
Codec ID                                 : avc1
Codec ID/Info                            : Advanced Video Coding
Duration                                 : 1 h 29 min
Bit rate mode                            : Variable
Bit rate                                 : 1 165 kb/s
Maximum bit rate                         : 3 600 kb/s
Width                                    : 720 pixels
Height                                   : 306 pixels
Display aspect ratio                     : 2.35:1
Frame rate mode                          : Constant
Frame rate                               : 23.976 (23976/1000) FPS
Color space                              : YUV
Chroma subsampling                       : 4:2:0
Bit depth                                : 8 bits
Scan type                                : Progressive
Bits/(Pixel*Frame)                       : 0.221
Stream size                              : 747 MiB (75%)


Audio
ID                                       : 2
Format                                   : AC-3
Format/Info                              : Audio Coding 3
Commercial name                          : Dolby Digital
Codec ID                                 : ac-3
Duration                                 : 1 h 29 min
Bit rate mode                            : Constant
Bit rate                                 : 384 kb/s
Channel(s)                               : 6 channels
Channel layout                           : L R C LFE Ls Rs
Sampling rate                            : 48.0 kHz
Frame rate                               : 31.250 FPS (1536 SPF)
Bit depth                                : 16 bits
Compression mode                         : Lossy
Stream size                              : 246 MiB (25%)
Title                                    : Surround
Language                                 : English
Service kind                             : Complete Main
Default                                  : Yes
Alternate group                          : 1



********************************************************


Category:Movies > HDRips
Lang:English  English
Total Size:1,022.05 MB
Info Hash:e32f3b82e314996318ef1bfad1b8198142fa104b
Added By:LifeLongg
Date Added:11-02-2019 12:48:04
Views:238
Hits:25

Download Torrent

Ratings:Not Yet Rated (Log in to rate it)


Tracker:
udp://tracker.openbittorrent.com:80/announce


File List: 


Comments

No comments still posted

Powered by 10 Hamsters v2-svn -|- Page Generated In 0.478924 secs.
-|- RSS FEED
Theme By: Nikkbu