[Login] or [Signup]
Login
Username:
Password:
[Signup]
[Recover Account]


Poll


You must be logged in to view polls



Torrent Details For " Pyaar Ki Jeet (2019 - Nannu Dochukunduvate South Hindi Dubbed) - 1CD - DTHRip[Mp4 - AAC3(5.1C..."

Pyaar Ki Jeet (2019 - Nannu Dochukunduvate South Hindi Dubbed) - 1CD - DTHRip[Mp4 - AAC3(5.1C...

Download this torrent | Magnet Download
Health:
Seeds: 72
Leechers: 15
Completed: 264 
Last Checked: 12-02-2019 09:12:58
External Torrent
Update Stats
Download Magnet


Poster


iMDB
Title: Nannu Dochukunduvate
Year: 2018
Runtime: 149 minutes
Votes: 171
Rating: 7.1/10
Language: Telugu
Director: R.S. Naidu
Writing By: R.S. Naidu,
Produced By: Rani Posani,Sudheer Babu Posani,
Music: B. Ajaneesh Loknath
Cast:
Sudheer Babu Posani as
Nabha Natesh as
Rajsekhar Aningi as Sarpanch
Viva Harsha as
Jeeva as
Shanmukh Jaswanth Kandregula ">Shanmukh Jaswanth Kandregula as
Nassar as
Prithviraj as
Sounder Rajan as
Sudharshan as
Trailers:
Nannu Dochukunduvate trailer


Watch-Free-HD     Download

Details
Name: Pyaar Ki Jeet (2019 - Nannu Dochukunduvate South Hindi Dubbed) - 1CD - DTHRip[Mp4 - AAC3(5.1C...
Description:
         Pyaar Ki Jeet (2019 - Nannu Dochukunduvate South Hindi Dubbed)
- 1CD - DTHRip[Mp4 - AAC3(5.1Ch)]  
 





General
Format                                   : MPEG-4
Format profile                           : Base Media
Codec ID                                 : isom (isom)
File size                                : 701 MiB
Duration                                 : 2 h 29 min

Video
ID                                       : 1
Format                                   : AVC
Format/Info                              : Advanced Video Codec
Format profile                           : [email protected]
Format settings                          : CABAC / 4 Ref Frames
Format settings, CABAC                   : Yes
Format settings, RefFrames               : 4 frames
Codec ID                                 : avc1
Codec ID/Info                            : Advanced Video Coding
Duration                                 : 2 h 29 min
Bit rate                                 : 523 kb/s
Maximum bit rate                         : 2 978 kb/s
Width                                    : 560 pixels
Height                                   : 288 pixels
Display aspect ratio                     : 1.944
Frame rate mode                          : Constant
Frame rate                               : 25.000 FPS
Color space                              : YUV
Chroma subsampling                       : 4:2:0
Bit depth                                : 8 bits
Scan type                                : Progressive
Bits/(Pixel*Frame)                       : 0.130
Stream size                              : 560 MiB (80%)


Audio
ID                                       : 2
Format                                   : AAC LC SBR
Commercial name                          : HE-AAC
Format settings                          : Explicit
Codec ID                                 : mp4a-40-2
Duration                                 : 2 h 29 min
Bit rate mode                            : Variable
Bit rate                                 : 128 kb/s
Maximum bit rate                         : 138 kb/s
Channel(s)                               : 6 channels
Channel layout                           : C L R Ls Rs LFE
Sampling rate                            : 48.0 kHz
Stream size                              : 137 MiB (20%)





Category:Movies > South Dub
Lang:Hindi
Total Size:700.71 MB
Info Hash:f5b4abd49e42248c21daa2272c66952f803642ae
Added By:CyberTron
Date Added:11-02-2019 07:28:42
Views:699
Hits:44

Download Torrent

Ratings:Not Yet Rated (Log in to rate it)

  


Tracker:
udp://tracker.trackerfix.com:80/announce


File List: 


Comments

No comments still posted

Powered by 10 Hamsters v2-svn -|- Page Generated In 0.928482 secs.
-|- RSS FEED
Theme By: Nikkbu