[Login] or [Signup]
Login
Username:
Password:
[Signup]
[Recover Account]


Poll


You must be logged in to view polls



Torrent Details For "Pyaar Ki Jeet (2019 - Nannu Dochukunduvate South Hindi Dubbed) - 2CD - DTHRip[x264 - AC3(5.1Ch..."

Pyaar Ki Jeet (2019 - Nannu Dochukunduvate South Hindi Dubbed) - 2CD - DTHRip[x264 - AC3(5.1Ch...

Download this torrent | Magnet Download
Health:
Seeds: 203
Leechers: 165
Completed: 503 
Last Checked: 11-02-2019 13:13:39
External Torrent
Update Stats
Download Magnet


Poster


iMDB
Title: Nannu Dochukunduvate
Year: 2018
Runtime: 149 minutes
Votes: 171
Rating: 7.1/10
Language: Telugu
Director: R.S. Naidu
Writing By: R.S. Naidu,
Produced By: Rani Posani,Sudheer Babu Posani,
Music: B. Ajaneesh Loknath
Cast:
Sudheer Babu Posani as
Nabha Natesh as
Rajsekhar Aningi as Sarpanch
Viva Harsha as
Jeeva as
Shanmukh Jaswanth Kandregula ">Shanmukh Jaswanth Kandregula as
Nassar as
Prithviraj as
Sounder Rajan as
Sudharshan as
Trailers:
Nannu Dochukunduvate trailer


Watch-Free-HD     Download

Details
Name:Pyaar Ki Jeet (2019 - Nannu Dochukunduvate South Hindi Dubbed) - 2CD - DTHRip[x264 - AC3(5.1Ch...
Description:
         Pyaar Ki Jeet (2019 - Nannu Dochukunduvate South Hindi Dubbed)
- 2CD - DTHRip[x264 - AC3(5.1Ch)]  
 






General
Format                                   : Matroska
Format version                           : Version 4
File size                                : 1.40 GiB
Duration                                 : 2 h 29 min

Video
ID                                       : 1
Format                                   : AVC
Format/Info                              : Advanced Video Codec
Format profile                           : [email protected]
Format settings                          : CABAC / 4 Ref Frames
Format settings, CABAC                   : Yes
Format settings, RefFrames               : 4 frames
Codec ID                                 : V_MPEG4/ISO/AVC
Duration                                 : 2 h 29 min
Bit rate                                 : 1 146 kb/s
Width                                    : 720 pixels
Height                                   : 376 pixels
Display aspect ratio                     : 1.915
Frame rate mode                          : Constant
Frame rate                               : 25.000 FPS
Color space                              : YUV
Chroma subsampling                       : 4:2:0
Bit depth                                : 8 bits
Scan type                                : Progressive
Bits/(Pixel*Frame)                       : 0.169
Stream size                              : 1.20 GiB (86%)

Audio
ID                                       : 2
Format                                   : AC-3
Format/Info                              : Audio Coding 3
Commercial name                          : Dolby Digital
Codec ID                                 : A_AC3
Duration                                 : 2 h 29 min
Bit rate mode                            : Constant
Bit rate                                 : 192 kb/s
Channel(s)                               : 6 channels
Channel layout                           : L R C LFE Ls Rs
Sampling rate                            : 48.0 kHz
Stream size                              : 206 MiB (14%)


  Thumbnail    





Category:Movies > South Dub
Lang:Hindi
Total Size:1.40 GB
Info Hash:12295bdccf37e6b8e84f4ef63e466bdf53a60893
Added By:CyberTron
Date Added:10-02-2019 13:42:42
Views:863
Hits:45

Download Torrent

Ratings:Not Yet Rated (Log in to rate it)

  


Tracker:
udp://tracker.trackerfix.com:80/announce


File List: 


Comments

No comments still posted

Powered by 10 Hamsters v2-svn -|- Page Generated In 0.883066 secs.
-|- RSS FEED
Theme By: Nikkbu