[Login] or [Signup]
Login
Username:
Password:
[Signup]
[Recover Account]


Poll


You must be logged in to view polls



Torrent Details For "Dashing Khiladi 2 (2019 - Atharva South Hindi Dubbed) - 720p - HDRip[x264 - AAC3(5.1Ch)] - 1.4..."

Dashing Khiladi 2 (2019 - Atharva South Hindi Dubbed) - 720p - HDRip[x264 - AAC3(5.1Ch)] - 1.4...

Download this torrent | Magnet Download
Health:
Seeds: 49
Leechers: 17
Completed: 78 
Last Checked: 12-02-2019 15:06:59
External Torrent
Update Stats
Download Magnet


Poster


Watch-Free-HD     Download

Details
Name:Dashing Khiladi 2 (2019 - Atharva South Hindi Dubbed) - 720p - HDRip[x264 - AAC3(5.1Ch)] - 1.4...
Description:
         Dashing Khiladi 2 (2019 - Atharva South Hindi Dubbed) -
720p - HDRip[x264 - AAC3(5.1Ch)] - 1.4 GB  
 






General
Format                                   : Matroska
Format version                           : Version 4
File size                                : 1.40 GiB
Duration                                 : 2 h 8 min

Video
ID                                       : 1
Format                                   : AVC
Format/Info                              : Advanced Video Codec
Format profile                           : [email protected]
Format settings                          : CABAC / 4 Ref Frames
Format settings, CABAC                   : Yes
Format settings, RefFrames               : 4 frames
Codec ID                                 : V_MPEG4/ISO/AVC
Duration                                 : 2 h 8 min
Bit rate                                 : 1 433 kb/s
Width                                    : 1 280 pixels
Height                                   : 544 pixels
Display aspect ratio                     : 2.35:1
Frame rate mode                          : Constant
Frame rate                               : 25.000 FPS
Color space                              : YUV
Chroma subsampling                       : 4:2:0
Bit depth                                : 8 bits
Scan type                                : Progressive
Bits/(Pixel*Frame)                       : 0.082
Stream size                              : 1.29 GiB (92%)

Audio
ID                                       : 2
Format                                   : AAC LC SBR
Commercial name                          : HE-AAC
Format settings                          : Explicit
Codec ID                                 : A_AAC-2
Duration                                 : 2 h 8 min
Bit rate                                 : 128 kb/s
Channel(s)                               : 6 channels
Channel layout                           : C L R Ls Rs LFE
Sampling rate                            : 48.0 kHz
Stream size                              : 117 MiB (8%)


  Thumbnail    



Category:Movies > South Dub
Lang:Hindi
Total Size:1.40 GB
Info Hash:d8ba624888f3601f9ea5b3fcf62a92c372718716
Added By:CyberTron
Date Added:09-02-2019 20:50:59
Views:699
Hits:33

Download Torrent

Ratings:Not Yet Rated (Log in to rate it)

  


Tracker:
udp://tracker.trackerfix.com:80/announce


File List: 


Comments

No comments still posted

Powered by 10 Hamsters v2-svn -|- Page Generated In 0.874722 secs.
-|- RSS FEED
Theme By: Nikkbu