[Login] or [Signup]
Login
Username:
Password:
[Signup]
[Recover Account]


Poll


You must be logged in to view polls



Torrent Details For "The Real Jackpot 2 (Indrajith - South Hindi Dubbed) - 720p - HDTVRip[x264 - AC3(5.1Ch)] - 1.4 G..."

The Real Jackpot 2 (Indrajith - South Hindi Dubbed) - 720p - HDTVRip[x264 - AC3(5.1Ch)] - 1.4 G...

Download this torrent | Magnet Download
Health:
Seeds: 37
Leechers: 17
Completed: 122 
Last Checked: 12-02-2019 15:07:12
External Torrent
Update Stats
Download Magnet


Poster


iMDB
Title: Indrajith
Year: 2017
Runtime: 116 minutes
Votes: 104
Rating: 3.3/10
Language: Tamil
Director: Kalaprabhu Thanu
Writing By: Kalaprabhu Thanu,
Produced By: Kalaippuli S. Thanu,
Cast:
Gautham Karthik as Indrajith
Sachin Khedekar as
Sudhanshu Pandey as
Sonarika Bhadoria as
Ashrita Shetty as
M.S. Bhaskar as
A. Ilankumaran as
Nagababu as
Nagendra Babu as
Ranjan as


Watch-Free-HD     Download

Details
Name:The Real Jackpot 2 (Indrajith - South Hindi Dubbed) - 720p - HDTVRip[x264 - AC3(5.1Ch)] - 1.4 G...
Description:
         The Real Jackpot 2 (Indrajith - South Hindi Dubbed) -
720p - HDTVRip[x264 - AC3(5.1Ch)] - 1.4 GB  
 






General
Format                                   : Matroska
Format version                           : Version 4
File size                                : 1.40 GiB
Duration                                 : 2 h 1 min

Video
ID                                       : 1
Format                                   : AVC
Format/Info                              : Advanced Video Codec
Format profile                           : [email protected]
Format settings                          : CABAC / 4 Ref Frames
Format settings, CABAC                   : Yes
Format settings, RefFrames               : 4 frames
Codec ID                                 : V_MPEG4/ISO/AVC
Duration                                 : 2 h 1 min
Bit rate                                 : 1 452 kb/s
Width                                    : 1 280 pixels
Height                                   : 544 pixels
Display aspect ratio                     : 2.35:1
Frame rate mode                          : Constant
Frame rate                               : 25.000 FPS
Color space                              : YUV
Chroma subsampling                       : 4:2:0
Bit depth                                : 8 bits
Scan type                                : Progressive
Bits/(Pixel*Frame)                       : 0.083
Stream size                              : 1.24 GiB (88%)

Audio
ID                                       : 2
Format                                   : AC-3
Format/Info                              : Audio Coding 3
Commercial name                          : Dolby Digital
Codec ID                                 : A_AC3
Duration                                 : 2 h 1 min
Bit rate mode                            : Constant
Bit rate                                 : 192 kb/s
Channel(s)                               : 6 channels
Channel layout                           : L R C LFE Ls Rs
Sampling rate                            : 48.0 kHz
Stream size                              : 167 MiB (12%)


  Thumbnail    






Category:Movies > South Dub
Lang:Hindi
Total Size:1.40 GB
Info Hash:60e91ea1bdcaf26ea93a81f3afbcca91e3534d22
Added By:CyberTron
Date Added:09-02-2019 15:15:28
Views:617
Hits:60

Download Torrent

Ratings:Not Yet Rated (Log in to rate it)

  


Tracker:
udp://tracker.trackerfix.com:80/announce


File List: 


Comments

No comments still posted

Powered by 10 Hamsters v2-svn -|- Page Generated In 1.008513 secs.
-|- RSS FEED
Theme By: Nikkbu